Форум программистов, компьютерный форум, киберфорум
Наши страницы
Софт: Аудио, звук
Войти
Регистрация
Восстановить пароль
 
Рейтинг 4.75/4: Рейтинг темы: голосов - 4, средняя оценка - 4.75
мама Стифлера
aka AspireM3400
833 / 555 / 79
Регистрация: 29.11.2015
Сообщений: 2,782
Записей в блоге: 8
1

Не открываются в редакторе скаченные файлы MP3

04.12.2018, 10:29. Просмотров 787. Ответов 11
Метки нет (Все метки)

Ситуация следующая: скачал с ютуюба видеофайлы, выдрал из них звук(mp3) и теперь не могу открыть эти mp3-файлы не в одном редакторе, для того чтоб обрезать ненужное. Но в Win10 они нормально проигрываются, что я не так сделал?
0
Лучшие ответы (1)
Similar
Эксперт
41792 / 34177 / 6122
Регистрация: 12.04.2006
Сообщений: 57,940
04.12.2018, 10:29
Ответы с готовыми решениями:

Как быстро отфильтровать mp3 файлы с Joint Stereo?
Здравствуйте. Скачал музыку на флешку в авто. Но заметил что магнитола не может воспроизвести все...

Старые аудио файлы не открываются
На работе есть сервер для хранения данных и как то понадобились аудио записи за пару лет тому...

Куда положить скаченные скринсейверы
Сорри, тупой вопрос, но - куда "пихать" скаченные скринсейверы, в какую папку?

Абсолютно все скаченные файлы не открываются, а если да (музыка, например) то слышны помехи
В общем, недавно семья сменила интернет-провайдера. У всех интернет начал работать намного лучше,...

В редакторе .NET не открываются файлы vb, aspx
Добрый день! С некоторых пор не открываются файлы .vb или/и .aspx. Вернее они открываются, но не...

11
мама Стифлера
aka AspireM3400
833 / 555 / 79
Регистрация: 29.11.2015
Сообщений: 2,782
Записей в блоге: 8
04.12.2018, 10:30  [ТС] 2
сами файлы тут
0
Вложения
Тип файла: rar mp3files.rar (7.14 Мб, 12 просмотров)
all1605
215 / 108 / 20
Регистрация: 15.03.2012
Сообщений: 540
04.12.2018, 16:45 3
мама Стифлера, открыл и вырезал программой Видео Мастер
0
Вложения
Тип файла: 7z Bach_1.7z (696.3 Кб, 1 просмотров)
Тип файла: 7z Paganini_1.7z (735.0 Кб, 1 просмотров)
мама Стифлера
aka AspireM3400
833 / 555 / 79
Регистрация: 29.11.2015
Сообщений: 2,782
Записей в блоге: 8
04.12.2018, 17:48  [ТС] 4
all1605, спасибо, что Видео Мастер справился, в вашей редакции все открывается отлично, в любом редакторе. Но все таки осталась проблема открытия файлов в первоначальной редакции, с чем это связано , не понятно.
0
all1605
215 / 108 / 20
Регистрация: 15.03.2012
Сообщений: 540
04.12.2018, 18:25 5
Действительно открываются не во всех редакторах и конверторах. В Movavi Video Suite 10 при попытке воспроизвести следует ХР и программа закрывается. В VSDC Free Audio Converter воспроизводится, музыка звучит, но программа виснет, ни на что- пауза, остановка и даже закрытие программы не реагирует. Остановил только снятием задачи через Process Killer. А Видео Мастер и воспроизвел и обрезал. Тоже не пойму, почему так?
0
MaГnum
687 / 595 / 37
Регистрация: 14.05.2011
Сообщений: 1,138
04.12.2018, 18:27 6
Лучший ответ Сообщение было отмечено мама Стифлера как решение

Решение

Цитата Сообщение от мама Стифлера Посмотреть сообщение
не могу открыть эти mp3-файлы не в одном редакторе
Видимо потому, что те редакторы, которые вы использовали, не работают с форматом AAC.
из MediaInfo:
Paganini.mp3
Format : dash
Codec ID : dash (iso6/mp41)
File size : 4.99 MiB
Duration : 5 min 29 s
Overall bit rate : 127 kb/s
Encoded date : UTC 2018-10-26 10:57:48
Tagged date : UTC 2018-10-26 10:57:48

Audio
ID : 1
Format : AAC
Format/Info : Advanced Audio Codec
Format profile : LC
Codec ID : mp4a-40-2
Duration : 5 min 29 s
Bit rate : 126 kb/s
Channel(s) : 2 channels
Channel positions : Front: L R
Sampling rate : 44.1 kHz
Frame rate : 43.066 FPS (1024 SPF)
Compression mode : Lossy
Stream size : 4.93 MiB (99%)
Encoded date : UTC 2018-10-26 10:57:48
Tagged date : UTC 2018-10-26 10:57:48
А вот то, что перекодировано Видеомастером и открылось у вас:
\Paganini_1\Paganini_1.mp3
Format : MPEG Audio
File size : 739 KiB
Duration : 31 s 477 ms
Overall bit rate mode : Constant
Overall bit rate : 192 kb/s
Writing library : LAMEUUU@dЯ”
major_brand : dash
minor_version : 0
compatible_brands : iso6mp41

Audio
Format : MPEG Audio
Format version : Version 1
Format profile : Layer 3
Format settings : Joint stereo
Duration : 31 s 477 ms
Bit rate mode : Constant
Bit rate : 192 kb/s
Channel(s) : 2 channels
Sampling rate : 44.1 kHz
Frame rate : 38.281 FPS (1152 SPF)
Compression mode : Lossy
Stream size : 738 KiB (100%)
Writing library : LAMEUUU@dЯ”
1
all1605
215 / 108 / 20
Регистрация: 15.03.2012
Сообщений: 540
04.12.2018, 18:49 7
MaГnum, действительно разные форматы.
0
Миниатюры
Не открываются в редакторе скаченные файлы MP3  
мама Стифлера
aka AspireM3400
833 / 555 / 79
Регистрация: 29.11.2015
Сообщений: 2,782
Записей в блоге: 8
04.12.2018, 19:04  [ТС] 8
Спасибо, понял, но просто странно, когда скачивал видео с ютуба то формат не заказывал, а автоматом скачиваются 2 файла(мп3 и мп4). Не дожидаясь мп4 я просто копировал файл мп3 в рабочую папку и все, а тут оказалось он не мп3 даже. Вот так это выглядит
0
Миниатюры
Не открываются в редакторе скаченные файлы MP3  
all1605
215 / 108 / 20
Регистрация: 15.03.2012
Сообщений: 540
04.12.2018, 19:50 9
мама Стифлера, Movavi Video Suite 10 и VSDC Free Audio Converter работают с файлами ААС и воспроизводят и режут (проверил на другом файле ААС), вот с этими двумя файлами не хотят почему то.
0
лотос
4043 / 2840 / 135
Регистрация: 29.11.2011
Сообщений: 4,544
04.12.2018, 23:26 10
Цитата Сообщение от мама Стифлера Посмотреть сообщение
понял, но просто странно, когда скачивал видео с ютуба то формат не заказывал, а автоматом скачиваются 2 файла(мп3 и мп4).
рекомендую UmmyVideoDownloader
Цитата Сообщение от all1605 Посмотреть сообщение
вот с этими двумя файлами не хотят почему то.
а у меня без проблем редактируется
0
Миниатюры
Не открываются в редакторе скаченные файлы MP3   Не открываются в редакторе скаченные файлы MP3   Не открываются в редакторе скаченные файлы MP3  

all1605
215 / 108 / 20
Регистрация: 15.03.2012
Сообщений: 540
05.12.2018, 00:20 11
Цитата Сообщение от лотос Посмотреть сообщение
а у меня без проблем редактируется
В ВидеоМастер у меня тоже без проблем открылись и обрезал их.
0
мама Стифлера
aka AspireM3400
833 / 555 / 79
Регистрация: 29.11.2015
Сообщений: 2,782
Записей в блоге: 8
05.12.2018, 15:33  [ТС] 12
В общем разобрался
Для начала упомяну, что пользуюсь для скачивания видео/аудио контента дополнением для браузера - Flash Video Downloader. Удобное дополнение, скачивает почти с любого сайта, но у него своеобразный способ скачивания с использованием временных файлов. Так вот, один из этих временных файлов и использовался мной как полноценный МП3-файл(мой предыдущий скрин) - это было не совсем корректное решение, поэтому он и не читается большинством редакторов. Для корректного же получения МП3, нужно дождаться полной загрузки видео и уже потом, с помощью редактора выдирать из видео звуковую дорожку. А временные файлы после завершения загрузки автоматически удаляются с диска самим дополнением, оставляя в загрузке только один файл МП4
1
Миниатюры
Не открываются в редакторе скаченные файлы MP3  
05.12.2018, 15:33
MoreAnswers
Эксперт
37091 / 29110 / 5898
Регистрация: 17.06.2006
Сообщений: 43,301
05.12.2018, 15:33

Не открываются файлы .config и .xml в текстовом редакторе VS 2010
Недавно появился неприятный глюк VS(точно не известно после чего и когда). При попытке открыть в VS...

Скаченные программы открываются другим приложением в Windows 7
Качаю к примеру Adobe Flash Player ну или пакет обнавлений на Windows7. Они скачиваются но...

скаченные текстовые файлы
когда скачиваю с интернета файлы, в большинстве случаев при открытии в word 2003, открывается окно ...


Искать еще темы с ответами

Или воспользуйтесь поиском по форуму:
12
Ответ Создать тему
Опции темы

КиберФорум - форум программистов, компьютерный форум, программирование
Powered by vBulletin® Version 3.8.9
Copyright ©2000 - 2018, vBulletin Solutions, Inc.
Рейтинг@Mail.ru