Форум программистов, компьютерный форум, киберфорум
Софт для Linux
Войти
Регистрация
Восстановить пароль
 
0 / 0 / 1
Регистрация: 11.11.2016
Сообщений: 5
1

Как убрать из оцифрованного видео снизу цветную полосу?

13.10.2018, 21:39. Просмотров 462. Ответов 1
Метки нет (Все метки)

Кликните здесь для просмотра всего текста
мой компьютер
inxi -Fxz
System: Host: lenovo Kernel: 4.15.0-24-generic x86_64 (64 bit gcc: 5.4.0)
Desktop: Cinnamon 3.6.7 (Gtk 3.18.9-1ubuntu3.3)
Distro: Linux Mint 18.3 Sylvia
Machine: System: LENOVO product: 3229AF8 v: ThinkCentre M92
Mobo: LENOVO model: MAHOBAY
Bios: LENOVO v: 9SKT39AUS date: 08/07/2012
CPU: Dual core Intel Core i3-2120T (-HT-MCP-) cache: 3072 KB
flags: (lm nx sse sse2 sse3 sse4_1 sse4_2 ssse3 vmx) bmips: 10375
clock speeds: max: 2600 MHz 1: 1596 MHz 2: 1596 MHz 3: 1596 MHz
4: 1596 MHz
Graphics: Card: Intel 2nd Generation Core Processor Family Integrated Graphics Controller
bus-ID: 00:02.0
Display Server: X.Org 1.18.4 drivers: intel (unloaded: fbdev,vesa)
Resolution: 1280x1024@59.89hz
GLX Renderer: Mesa DRI Intel Sandybridge Desktop
GLX Version: 3.0 Mesa 17.2.8 Direct Rendering: Yes
Audio: Card Intel 7 Series/C210 Series Family High Definition Audio Controller
driver: snd_hda_intel bus-ID: 00:1b.0
Sound: Advanced Linux Sound Architecture v: k4.15.0-24-generic
Network: Card: Intel 82579LM Gigabit Network Connection
driver: e1000e v: 3.2.6-k port: f080 bus-ID: 00:19.0
IF: eno1 state: up speed: 1000 Mbps duplex: full mac: <filter>
Drives: HDD Total Size: 250.1GB (14.4% used)
ID-1: /dev/sda model: WDC_WD2500BEKT size: 250.1GB
Partition: ID-1: / size: 46G used: 16G (36%) fs: ext4 dev: /dev/sda1
ID-2: swap-1 size: 6.01GB used: 0.00GB (0%) fs: swap dev: /dev/sda2
RAID: No RAID devices: /proc/mdstat, md_mod kernel module present
Sensors: System Temperatures: cpu: 54.0C mobo: 27.8C
Fan Speeds (in rpm): cpu: N/A
Info: Processes: 204 Uptime: 1:37 Memory: 843.5/5764.4MB
Init: systemd runlevel: 5 Gcc sys: 5.4.0
Client: Shell (bash 4.3.481) inxi: 2.2.35


Кликните здесь для просмотра всего текста
тв-тюнер
dmesg | grep usb
[ 19.543479] pvrusb2: Hardware description: Gotview USB 2.0 DVD Deluxe
[ 19.543897] usbcore: registered new interface driver pvrusb2
[ 19.543898] pvrusb2: V4L in-tree version:Hauppauge WinTV-PVR-USB2 MPEG2 Encoder/Tuner
[ 19.543900] pvrusb2: Debug mask is 31 (0x1f)
[ 19.565323] cx25840 9-0044: cx25843-23 found @ 0x88 (pvrusb2_a)
[ 19.574163] pvrusb2: Attached sub-driver cx25840
[ 19.607188] pvrusb2: Attached sub-driver tuner
[ 19.617854] pvrusb2: Attached sub-driver tuner
[ 21.930436] pvrusb2: Supported video standard(s) reported available in hardware: PAL-B/B1/D/D1/G/H/I/K/M/N/Nc/60;NTSC-M/
[ 21.930562] pvrusb2: Device initialization completed successfully.
[ 21.930641] pvrusb2: registered device video0 [mpeg]


Кликните здесь для просмотра всего текста
параметры видеофайла
General
Complete name : /mnt/34BAE2ED63689019/video.mpeg
Format : MPEG-PS
File size : 33.3 MiB
Duration : 42s 600ms
Overall bit rate mode : Variable
Overall bit rate : 6 566 Kbps

Video
ID : 224 (0xE0)
Format : MPEG Video
Format version : Version 2
Format profile : Main@Main
Format settings, BVOP : Yes
Format settings, Matrix : Custom
Format settings, GOP : M=3, N=15
Format settings, picture structure : Frame
Duration : 42s 600ms
Bit rate mode : Variable
Bit rate : 6 211 Kbps
Maximum bit rate : 8 000 Kbps
Width : 720 pixels
Height : 576 pixels
Display aspect ratio : 4:3
Frame rate : 25.000 fps
Standard : PAL
Color space : YUV
Chroma subsampling : 4:2:0
Bit depth : 8 bits
Scan type : Interlaced
Scan order : Top Field First
Compression mode : Lossy
Bits/(Pixel*Frame) : 0.599
Time code of first frame : 00:00:00:00
Time code source : Group of pictures header
GOP, Open/Closed : Closed
Stream size : 31.5 MiB (95%)

Audio
ID : 192 (0xC0)
Format : MPEG Audio
Format version : Version 1
Format profile : Layer 2
Duration : 42s 480ms
Bit rate mode : Constant
Bit rate : 224 Kbps
Channel(s) : 2 channels
Sampling rate : 48.0 KHz
Compression mode : Lossy
Delay relative to video : -140ms
Stream size : 1.13 MiB (3%)


долго разбирался как подключить тюнер и как захватывать избражения.
что получилось:
оцифровываю: v4l2-ctl --set-fmt-video=width=720,height=576, -i 1; cat /dev/video0 > /mnt/34BAE2ED63689019/video.mpeg
отдельно предварительно посмотреть: ivtv-tune -input=1; mplayer /dev/video0

нужна помощь, подскажите:
1. как при оцифровке видео - сразу смотреть видео для контроля?
2. видно скриншоте изображения, как убрать снизу цветную полосу и сверху (обведены красной линией) - перепробовал разные из интернета, не получается
0
Миниатюры
Как убрать из оцифрованного видео снизу цветную полосу?  
Programming
Эксперт
94731 / 64177 / 26122
Регистрация: 12.04.2006
Сообщений: 116,782
13.10.2018, 21:39
Ответы с готовыми решениями:

Как убрать черную полосу среди экрана на видео?
как убрать черную полосу среди экрана на видео. она возникла из за неисправной видеокамеры. спасибо...

Как убрать цветную заливку фона некоторых символов
Друзья, может быть ответ на мой вопрос уже давали на этом форуме, но я не нашел. Ситуация...

Разместить на странице цветную полосу вдоль всего левого края окна без использования фонового изображения
Разместить на странице цветную полосу вдоль всего левого края окна без использования фонового...

Как убрать чёрную полосу???
как убрать чёрную полосу на сайте справа http://carpmaster.by/

1
0 / 0 / 1
Регистрация: 11.11.2016
Сообщений: 5
14.10.2018, 20:16  [ТС] 2
второй вопрос я вроде бы решил (не знаю правильно или нет - на изображении вроде не видно) - изменил height=566 в
v4l2-ctl --set-fmt-video=width=720,height=576, -i 1; cat /dev/video0 > /mnt/34BAE2ED63689019/video.mpeg
цветная полоса исчезла.

осталось понять как одновременно, чтобы и сохранялось в файл и можно было смотреть-контролировать изображение, например mplayer /dev/video0 , но как это сделать? как встроить ?
0
IT_Exp
Эксперт
87844 / 49110 / 22898
Регистрация: 17.06.2006
Сообщений: 92,604
14.10.2018, 20:16

Заказываю контрольные, курсовые, дипломные и любые другие студенческие работы здесь.

Как убрать полосу прокрутки у <textarea>?
Здравствуйте. Собственно вот вопрос, как убрать полосу прокрутки?)) а то у меня окошко 60 пикселей...

Как убрать полосу прокрутки в форме?
Проблема такая. Когда открывается какой-то документ на весь экран, сразу устанавливается...

Как убрать чёрную полосу на сайте?
Здравствуйте! Появилась внезапно чёрная полоса и я ее как то не заметил сразу, только в дальнейшем...

Как убрать вертикальную полосу в NetBeans?
Появилась такая полоса - знает кто, как убрать это?


Искать еще темы с ответами

Или воспользуйтесь поиском по форуму:
2
Ответ Создать тему
Опции темы

КиберФорум - форум программистов, компьютерный форум, программирование
Powered by vBulletin® Version 3.8.9
Copyright ©2000 - 2020, vBulletin Solutions, Inc.