Форум программистов, компьютерный форум, киберфорум
Софт: Видео
Войти
Регистрация
Восстановить пароль
 
Рейтинг 4.67/6: Рейтинг темы: голосов - 6, средняя оценка - 4.67
0 / 0 / 0
Регистрация: 18.04.2020
Сообщений: 1
1

format factory error

18.04.2020, 17:41. Просмотров 1116. Ответов 3
Метки нет (Все метки)

Здравствуйте, пытаюсь конвертировать фильм формата mkv, с аудиокодеком ac3 в аудиокодек mp33. K-lite codec pack на месте, последняя версия программы. На 7-ке конвертировалось без проблем, теперь на 10-ке выдает ошибку:

Кликните здесь для просмотра всего текста
Input #0, matroska,webm, from 'E:\torrent downloads\No.Country.for.Old.Men.2007.x264.1080p\No.Country. for.Old.Men.2007.x264.1080p.mkv':
Metadata:
encoder : libebml v1.3.0 + libmatroska v1.4.0
creation_time : 2013-06-24T16:14:10.000000Z
Duration: 02:02:11.26, start: 0.000000, bitrate: 9321 kb/s
Stream #0:0(eng): Video: h264, yuv420p(progressive), 1920x816 [SAR 1:1 DAR 40:17], 23.98 fps, 23.98 tbr, 1k tbn, 47.95 tbc (default)
Stream #0:1(rus): Audio: ac3, 48000 Hz, 5.1(side), fltp, 640 kb/s (default)
Metadata:
title : AC3 5.1ch 640 kbps - Дубляж, Пифагор
Stream #0:2(eng): Audio: ac3, 48000 Hz, 5.1(side), fltp, 640 kb/s
Metadata:
title : AC3 5.1ch 640 kbps - Английский
Stream #0:3(rus): Subtitle: subrip
Metadata:
title : Р СѓСЃСЃРєРёРµ
Stream #0:4(eng): Subtitle: subrip
Metadata:
title : Английские
Invalid framerate value: 23,976


K-lite codec pack на месте, последняя версия программы.

Как это пофиксить? Заранее спасибо!
0
Лучшие ответы (1)
Programming
Эксперт
94731 / 64177 / 26122
Регистрация: 12.04.2006
Сообщений: 116,782
18.04.2020, 17:41
Ответы с готовыми решениями:

Ошибки в работе Format Factory на Windows 10
Товарищи, подскажите кто знает. Всегда пользовался программой и все получалось. После...

Ошибка при конвертировании в Format Factory
Здравствуйте. Возникла проблема при конвертировании файла из PDF в EPUB, в информации об ошибке вот...

Нет изображения при обработке в format factory
Всем привет! Когда переделал видео в format factory в avi, записал на диск и попробовал...

Как в format Factory избавиться от ошибок при конвертировании?
Добрый день, пытаюсь сконвертировать видео в mp4. Настройки выбираю такие - как в первой...

3
4438 / 3137 / 173
Регистрация: 29.11.2011
Сообщений: 5,096
18.04.2020, 21:45 2
Лучший ответ Сообщение было отмечено bormotolog как решение

Решение

Цитата Сообщение от shadeori Посмотреть сообщение
K-lite codec pack на месте
ну и нафик систему мусорить этим паком?
Цитата Сообщение от shadeori Посмотреть сообщение
теперь на 10-ке выдает ошибку
что за десятка и её происхождение
2
4438 / 3137 / 173
Регистрация: 29.11.2011
Сообщений: 5,096
18.04.2020, 22:07 3
shadeori
Библиотека Format Factory поддерживает почти все на сегодняшний день форматы видео, причем, даже если они самые редкие и недоступные соответственно и кодеки для создания вышеупомянутых форматов и контейнеров
1
Миниатюры
format factory error   format factory error   format factory error  

Эксперт по компьютерным сетям
2396 / 597 / 49
Регистрация: 17.03.2013
Сообщений: 2,187
20.04.2020, 10:41 4
shadeori, в дополнение к совету лотос есть простой приём с ffmpeg:
Код
ffmpeg -hide_baner -i "ваш_файл" -map:0:v copy -map 0:a:0 -c:0:a  aac384K  -map 0:a:1 -c:1:a 384K  aac -map  0:s:0 copy -map  0:s:1 copy "ваш_файл.mp4"
0
IT_Exp
Эксперт
87844 / 49110 / 22898
Регистрация: 17.06.2006
Сообщений: 92,604
20.04.2020, 10:41

Заказываю контрольные, курсовые, дипломные и любые другие студенческие работы здесь.

Использование format factory из своей программы
Здравствуйте. Как можно взаимодействовать с функциями других программ из своей? Мне необходимо...

Error 72: Unit file format error - как заставить tp видеть модуль?
в Directories путь прописал, файл пересохранял из .pas в .tpu, короче делал все) может...

Error 72: Unit file format error - как заставить розпознать модуль модуль?
в Directories путь прописал, файл пересохранял из .pas в .tpu. может кто-нибудь подскажет, что...

Error 106: Invalid numeric format
программа вроде правильная, а почему выдает такую ошибку? Помогите, у меня не получается:wall:

Conversion to Dalvik format failed with error 1
доброго времини суток я добаляю таймер пишшу вот такой код import java.awt.event.ActionEvent;...

GLUT Fatal Error: pixel format with necessary capabilities not found
Всем привет, я только начал осваивать OpenGL и первая программа выдает ошибку(subj). Код не мой,...


Искать еще темы с ответами

Или воспользуйтесь поиском по форуму:
4
Ответ Создать тему
Опции темы

КиберФорум - форум программистов, компьютерный форум, программирование
Powered by vBulletin® Version 3.8.9
Copyright ©2000 - 2020, vBulletin Solutions, Inc.